tEMPtAtION – The 7th Guest – Hand of Fate – Lands of Lore – Indycar Racing & Track Pack Compilation – PC – Virgin / Westwood

tEMPtAtION – The 7th Guest – Hand of Fate – Lands of Lore – Indycar Racing & Track Pack Compilation – PC – Virgin / Westwood

Posted by

Download
ITEM TILE – File Size: 6.6K

7th Guest CD 1: 

Common Disc Info:
Title: The 7th Guest
Disc Number / Letter: 1
Disc Title: 
System: IBM PC Compatible
Media Type: CD-ROM
Category: Games
Matching IDs: 11578
Region: Europe
Languages: English
Disc Serial: 
Ringcode Information:
Mastering Code (laser branded/etched): SONOPRESS CD-ROM * G-9265 * G 3
Mastering SID Code: 
Data-Side Mould SID Code: IFPI 0717
Label-Side Mould SID Code: 
Additional Mould: 
Toolstamp or Mastering Code (engraved/stamped): 
Barcode: 5 028587 001277
Error Count: 2
Comments: Last two sectors of Track 1 contain audio silence
Contents:
Version and Editions:
Version: 1.2
Edition/Release: Temptation, White Label, Bundle Version OEM
Extras:
Primary Volume Descriptor (PVD):
0320 : 20 20 20 20 20 20 20 20  20 20 20 20 20 31 39 39                199
0330 : 33 30 34 32 31 31 31 35  33 35 31 30 30 00 31 39   3042111535100.19
0340 : 39 33 30 34 32 31 31 31  35 33 35 31 30 30 00 32   93042111535100.2
0350 : 30 30 30 30 31 30 31 30  30 30 30 30 30 30 30 2B   000010100000000+
0360 : 31 39 38 37 30 31 30 31  30 30 30 30 30 30 30 30   1987010100000000
0370 : 2B 01 00 00 00 00 00 00  00 00 00 00 00 00 00 00   +……………
Copy Protection:
Copy Protection: None found
Tracks and Write Offsets:
DAT:
Cuesheet:
FILE “7TH_GUEST_1 (Track 1).bin” BINARY
  TRACK 01 MODE1/2352
    INDEX 01 00:00:00
FILE “7TH_GUEST_1 (Track 2).bin” BINARY
  TRACK 02 AUDIO
    INDEX 00 00:00:00
    INDEX 01 00:02:00
FILE “7TH_GUEST_1 (Track 3).bin” BINARY
  TRACK 03 AUDIO
    INDEX 00 00:00:00
    INDEX 01 00:00:53
Write Offset: 944
CD 2 : Common Disc Info:
Title: The 7th Guest
Foreign Title (Non-latin): 
Disc Number / Letter: 2
Disc Title: 
System: IBM PC Compatible
Media Type: CD-ROM
Category: Games
Region: France
Languages: English
Disc Serial: 
Ringcode Information:
Mastering Code (laser branded/etched): SONOPRESS * CD-ROM * H-1517 B 1
Mastering SID Code: IFPI L021
Data-Side Mould SID Code: IFPI 0736
Label-Side Mould SID Code: 
Additional Mould: 
Toolstamp or Mastering Code (engraved/stamped): 
Barcode: 
Error Count: 0
Comments: [T:ISBN] 
Contents:
Version and Editions:
Version: 1.2
Edition/Release: Temptation
Extras:
Primary Volume Descriptor (PVD):
0320 : 20 20 20 20 20 20 20 20  20 20 20 20 20 31 39 39                199
0330 : 33 30 36 31 37 31 38 34  30 33 34 30 30 00 31 39   3061718403400.19
0340 : 39 33 30 36 31 37 31 38  34 30 33 34 30 30 00 32   93061718403400.2
0350 : 30 30 30 30 31 30 31 30  30 30 30 30 30 30 30 2B   000010100000000+
0360 : 31 39 38 37 30 31 30 31  30 30 30 30 30 30 30 30   1987010100000000
0370 : 2B 01 00 00 00 00 00 00  00 00 00 00 00 00 00 00   +……………
Copy Protection:
Copy Protection: None found
Tracks and Write Offsets:
DAT:
Cuesheet:
CATALOG 0000000000000
FILE “7TH_GUEST_2 (Track 1).bin” BINARY
  TRACK 01 MODE1/2352
    INDEX 01 00:00:00
FILE “7TH_GUEST_2 (Track 2).bin” BINARY
  TRACK 02 AUDIO
    INDEX 00 00:00:00
    INDEX 01 00:01:74
Write Offset: 222
Hand of Fate, Indycar : 
Common Disc Info:
Title: Hand of Fate, IndyCar Racing, IndyCar TrackPack
Disc Number / Letter: 
Disc Title: (OPTIONAL)
System: IBM PC Compatible
Media Type: CD-ROM
Category: Games
Matching IDs: 15801
Region: Europe
Languages: English
Disc Serial: 
Ringcode Information:
Mastering Code (laser branded/etched): SONOPRESS CD-ROM K-4942 A 1
Mastering SID Code: IFPI L021
Data-Side Mould SID Code: IFPI 0727
Label-Side Mould SID Code:
Additional Mould: 
Toolstamp or Mastering Code (engraved/stamped): 
Barcode: 
Error Count: 0
Comments:
Contents: 
Version and Editions:
Version: 
Edition/Release: Temptation
Extras:
Primary Volume Descriptor (PVD):
0320 : 20 20 20 20 20 20 20 20  20 20 20 20 20 31 39 39                199
0330 : 35 30 32 31 32 31 32 30  31 33 38 30 30 00 31 39   5021212013800.19
0340 : 39 35 30 32 31 32 31 32  30 31 33 38 30 30 00 32   95021212013800.2
0350 : 30 30 30 30 31 30 31 30  30 30 30 30 30 30 30 2B   000010100000000+
0360 : 31 39 38 37 30 31 30 31  30 30 30 30 30 30 30 30   1987010100000000
0370 : 2B 01 00 00 00 00 00 00  00 00 00 00 00 00 00 00   +……………
Copy Protection:
Copy Protection: None found
Tracks and Write Offsets:
DAT:
Cuesheet:
CATALOG 0000000000000
FILE “TMPT1.bin” BINARY
  TRACK 01 MODE1/2352
    INDEX 01 00:00:00
Write Offset: 222
Lands of Lore :
Common Disc Info:
Title: Lands of Lore
Disc Number / Letter: 
Disc Title: 
System: IBM PC Compatible
Media Type: CD-ROM
Category: Games
Matching IDs: 15800
Region: Europe
Languages: English
Disc Serial: 
Ringcode Information:
Mastering Code (laser branded/etched): SONOPRESS CD-ROM K-4941 A DSW2
Mastering SID Code: IFPI L022
Data-Side Mould SID Code: IFPI 0716
Label-Side Mould SID Code:
Additional Mould: 
Toolstamp or Mastering Code (engraved/stamped): 
Barcode: 
Error Count: 0
Comments: [T:ISBN] 
Contents:
Version and Editions:
Version: 
Edition/Release: Temptation
Extras:
Primary Volume Descriptor (PVD):
0320 : 20 20 20 20 20 20 20 20  20 20 20 20 20 31 39 39                199
0330 : 35 30 32 31 33 31 34 31  31 33 31 30 30 00 31 39   5021314113100.19
0340 : 39 35 30 32 31 33 31 34  31 31 33 31 30 30 00 32   95021314113100.2
0350 : 30 30 30 30 31 30 31 30  30 30 30 30 30 30 30 2B   000010100000000+
0360 : 31 39 38 37 30 31 30 31  30 30 30 30 30 30 30 30   1987010100000000
0370 : 2B 01 00 00 00 00 00 00  00 00 00 00 00 00 00 00   +……………
Copy Protection:
Copy Protection: None found
Tracks and Write Offsets:
DAT:
Cuesheet:
CATALOG 0000000000000
FILE “TMPT_2.bin” BINARY
  TRACK 01 MODE1/2352
    INDEX 01 00:00:00
Write Offset: 222